<?xml version="1.0" standalone="no"?>
<!DOCTYPE svg PUBLIC "-//W3C//DTD SVG 1.1//EN" "http://www.w3.org/Graphics/SVG/1.1/DTD/svg11.dtd">
<svg xmlns="http://www.w3.org/2000/svg">
<metadata>Copyright (C) 2025 by original authors @ fontello.com</metadata>
<defs>
<font id="fontello" horiz-adv-x="1000" >
<font-face font-family="fontello" font-weight="400" font-stretch="normal" units-per-em="1000" ascent="850" descent="-150" />
<missing-glyph horiz-adv-x="1000" />
<glyph glyph-name="arrow-triangle-left" unicode="&#xe800;" d="M534-9l-415 342 415 342v-684z m41-120c9 0 18 8 18 20v884c0 12-9 24-18 24-3 0-6 0-10-4l-534-442c-12-8-12-28 0-40l534-438c3-4 7-4 10-4z" horiz-adv-x="643" />

<glyph glyph-name="miscellaneous" unicode="&#xe801;" d="M775 400h-375c-25 0-50-25-50-50s25-50 50-50h375c25 0 50 19 50 50 0 25-19 50-50 50z m0 206h-375c-25 0-50-25-50-50 0-25 25-50 50-50h375c25 0 50 19 50 50 0 25-19 50-50 50z m0-406h-375c-25 0-50-25-50-50 0-25 25-50 50-50h375c25 0 50 19 50 50 0 25-19 50-50 50z m50 650h-644c-100 0-181-81-181-181v-638c0-100 81-181 181-181h638c100 0 181 81 181 175v644c0 100-81 181-175 181z m88-825c0-50-38-88-88-88h-644c-50 0-87 38-87 88v644c0 50 37 87 87 87h644c50 0 88-37 88-87v-644z m-669 463c37 0 62 25 62 62s-25 63-62 63-63-25-63-63 32-62 63-62z m0-200c37 0 62 25 62 62s-25 63-62 63-63-25-63-63 32-62 63-62z m0-200c37 0 62 25 62 62s-25 63-62 63-63-25-63-63 32-62 63-62z" horiz-adv-x="1000" />

<glyph glyph-name="right-open-1" unicode="&#xe802;" d="M618 361l-414-415q-11-10-25-10t-25 10l-93 93q-11 11-11 25t11 25l296 297-296 296q-11 11-11 25t11 25l93 93q10 11 25 11t25-11l414-414q10-11 10-25t-10-25z" horiz-adv-x="714.3" />

<glyph glyph-name="navigation" unicode="&#xe803;" d="M394 688c-25 18-63 18-81-7l-294-293c-25-25-25-57 0-82l294-287c18-19 56-19 75 0 25 25 25 56 0 81l-250 250 256 256c25 25 25 57 0 82z m587-300l-293 293c-25 25-57 25-82 0-18-18-18-56 7-75l250-256-257-256c-25-25-25-56 0-81 13-13 50-26 75 0l294 293c31 25 31 63 6 82z" horiz-adv-x="1000" />

<glyph glyph-name="right-open-big" unicode="&#xe804;" d="M13-20l358 370-358 372q-26 26 0 48 26 26 48 0l392-394q24-26 0-50l-392-394q-22-26-48 0-26 22 0 48z" horiz-adv-x="465" />

<glyph glyph-name="lightbox-general" unicode="&#xe805;" d="M569-44c-6-6-19-19-25-19-25-12-56-12-81 0s-44 38-44 63c0 13-13 25-25 31-19 0-31 7-44 13-12 6-25 6-37-6-25-19-50-19-82-13-25 13-43 31-50 63-6 25-6 56 13 81 6 12 12 25 6 37-12 7-19 19-19 32-6 12-18 25-31 25-25 6-50 25-62 50s-13 56 0 81c12 19 37 37 62 44 13 0 25 12 31 25 0 12 7 25 13 37 6 13 6 25-6 38-13 18-19 50-13 81 13 25 31 50 56 56 32 6 63 0 82-12 12-7 25-13 37-7 19 7 25 13 38 13 12 6 25 12 25 31 6 25 25 50 50 63 25 12 56 12 81 0 25-13 44-38 44-63 0-12 12-25 25-31 12 0 25-6 37-13 13-6 25-6 38 0 25 19 50 19 75 13 25-6 50-31 56-56 6-25 6-57-13-75-6-13-6-25 0-38 7-12 13-25 13-37 6-13 19-25 31-25 19-7 38-13 56-32 13-18 19-37 19-56 0-19-6-44-19-56 0-6-6-6-12-13-19-12-19-37-6-50 12-12 37-18 50-6 6 6 12 13 18 19 32 31 44 69 44 106 0 38-12 75-37 106-19 25-44 44-75 50 0 0 0 7 0 7 18 37 25 81 6 125-19 50-63 87-106 100-44 12-88 12-125-7 0 0 0 0-7 0-12 44-43 75-81 100-50 25-100 25-150 0-37-18-62-56-81-100 0 0 0 0-6 0-32 25-82 32-125 13-50-13-94-50-107-106-12-44-12-88 13-125 0 0 0-7 0-7-44-12-81-43-100-81-25-44-25-100 0-150 19-37 56-69 100-81 0 0 0-6 0-6-19-38-25-88-13-125 19-50 57-88 107-107 43-12 87-12 125 13 0 0 6 0 6 0 12-44 44-75 81-100 25-13 50-19 75-19 25 0 50 6 75 19 19 12 38 25 50 43 13 19 13 38-6 50-19 13-38 13-50-6z m150 344c0 13 6 31 6 44 0 56-25 119-69 162-37 44-100 69-156 69-25 0-50-6-75-12-12-7-19-19-19-32s0-25 13-37l56-56c19-19 19-50 0-69-19-19-50-19-69 0l-56 62c-12 7-25 13-37 7-13 0-25-13-25-25-7-19-13-38-13-63 0-62 25-119 69-156 44-44 100-69 156-69 13 0 31 0 44 6l237-237c32-32 63-44 94-44 31 0 63 12 88 37 25 25 37 57 37 88 0 31-12 63-37 88l-244 237z m-325-56c-19 19-31 44-38 75 44-44 125-38 169 6 50 50 50 125 0 175l0 0c31-6 63-19 88-44 31-31 43-68 43-106 0-37-12-75-43-106-63-56-163-56-219 0z m512-300c-18-19-50-19-68 0l-213 219c13 6 25 18 38 31 12 12 18 25 31 37l219-218c12-13 12-26 12-38 0-13-6-25-19-31z" horiz-adv-x="1000" />

<glyph glyph-name="right-open-outline" unicode="&#xe806;" d="M156-66q-63 0-110 46t-46 111 46 110l150 150-150 150q-46 46-46 110 0 65 46 111 44 44 110 44t110-44l372-371-372-372q-45-45-110-45z m0 729q-21 0-37-16t-15-36q0-20 16-37l223-223-223-224q-16-16-16-36 0-22 16-38 15-15 36-15t37 15l297 298-297 297q-15 15-37 15z" horiz-adv-x="638" />

<glyph glyph-name="right" unicode="&#xe807;" d="M0 347q0 26 18 43t43 17h642l-242 244q-19 18-19 44t19 42q17 19 42 19t44-19l390-390-390-391q-20-18-44-18t-42 18-19 44 19 43l242 242h-642q-25 0-43 18t-18 44z" horiz-adv-x="938" />

<glyph glyph-name="form-style" unicode="&#xe808;" d="M738 850h-600c-75 0-138-62-138-137v-726c0-75 63-137 138-137h318c7 0 13 12 7 19-7 0-13 6-13 6-12 12-25 31-31 44 0 0 0 6 0 6-6 12-13 19-25 19-50 0-181 0-250 0-25 0-44 18-44 43v726c0 25 19 43 44 43h600c25 0 44-18 44-43v-225c0-7 12-13 12-7 0 0 0 0 0 0 19 19 38 32 63 38 6 6 12 12 12 19 0 31 0 106 0 175 0 75-62 137-137 137z m187-412c-50 0-81-44-112-75-25-32-57-63-82-94 0 0-18-25-18-25 18-6 37-19 56-38 19-18 31-37 37-56 50 44 107 94 157 138 12 12 25 18 31 31 25 56-6 119-69 119z m-362-257c-38-37-32-75-32-106 0-31 7-56-12-81-6-7-19-13-19-25 0-38 44-32 69-32 56 0 131 19 181 69 25 25 38 57 38 88s-13 62-38 87c-50 50-131 50-187 0z m68 307h-387c-25 0-50 25-50 50s19 50 50 50h387c25 0 50-19 50-50s-25-50-50-50z m0-188h-387c-25 0-50 25-50 50s19 50 50 50h387c25 0 50-19 50-50s-25-50-50-50z m-231-187h-156c-25 0-50 18-50 50s19 50 50 50h156c25 0 50-19 50-50s-25-50-50-50z" horiz-adv-x="1000" />

<glyph glyph-name="awaiting-notification" unicode="&#xe809;" d="M942 460c0 128-104 232-232 232-56 0-78-11-112-29-7 4-15 8-22 11v46c0 72-59 130-130 130-72 0-130-58-130-130v-46c-106-49-180-156-180-281v-162c0-10-4-20-12-27l-39-39c-17-18-27-42-27-66 0-52 42-94 94-94h139c0-86 69-155 155-155 85 0 155 70 155 155h139c52 0 93 42 93 94 0 24-9 48-27 66l-39 39c-7 7-11 17-11 27v3c106 21 186 114 186 226l0 0z m-550 260c0 30 24 54 54 54 29 0 53-24 53-54v-22c-17 3-35 5-53 5-18 0-36-2-54-5v22z m54-793c-43 0-78 35-78 78h155c0-43-34-78-77-78h0z m294 156h-588c-9 0-16 7-16 15 0 5 1 9 4 12l39 38c22 22 34 52 34 83v162c0 80 41 151 103 193 23 15 49 27 76 33 18 4 35 6 54 6 18 0 36-2 53-6 3-1 6-1 8-2 1 0 1 0 2 0 2-1 5-2 7-3 0 0 1 0 1 0 5-2 11-3 16-6-34-40-54-91-54-148 0-116 87-213 200-229v0c-1-31 12-61 34-82l38-39c4-3 5-7 5-11 0-9-7-16-16-16l0 0z m-30 222c-11 0-21 2-32 4-70 15-129 77-122 151 7 78 20 83 42 111 17 21 43 31 70 38 13 4 28 6 42 6 86 0 155-69 155-155 0-85-46-128-109-148-14-4-30-7-46-7z m104 155c0 17-13 30-29 30h-45v66c0 16-13 29-29 29-17 0-30-13-30-29v-96c0-16 13-29 30-29h74c16 0 29 13 29 29v0z" horiz-adv-x="1000" />

<glyph glyph-name="notifications" unicode="&#xe80a;" d="M875 144l-62 131c0 6 0 6 0 13v50c0 6-7 12-13 6-19-6-44-13-62-13h0c-7 0-13-6-13-6v-37c0-13 6-32 13-44l56-119h-588l57 119c6 19 12 31 12 44v137c0 94 63 181 150 213 13 6 25 25 25 43v32c0 25 13 43 38 50 31 12 62-13 62-50v-7c0-6 6-18 19-18 6 0 6 0 12 6 0 0 0 0 0 0 13 12 25 19 38 31 6 13 12 25 6 44-19 44-69 81-125 81-75 0-137-62-137-137v0c-107-57-175-163-175-288v-137c0-7 0-13 0-13l-63-137c-12-25-12-50 6-69 7-19 32-31 57-31h118c0-107 88-188 194-188 106 0 194 87 194 188h119c25 0 50 12 62 31 13 25 13 50 0 75z m-375-207c-56 0-106 44-106 107h212c0-63-50-107-106-107z m375 613c0-75-69-137-144-137-68 6-125 62-131 131-6 81 56 144 138 144 75 0 137-63 137-138l0 0z m-512-175c-19 0-32 13-32 31-12 119 69 169 119 182 19 6 38-7 44-25 6-19-6-38-25-44-13 6-81-19-75-106 6-19-13-38-31-38 0 0 0 0 0 0z" horiz-adv-x="1000" />

<glyph glyph-name="cog" unicode="&#xe80b;" d="M571 350q0 59-41 101t-101 42-101-42-42-101 42-101 101-42 101 42 41 101z m286 61v-124q0-7-4-13t-11-7l-104-16q-10-30-21-51 19-27 59-77 6-6 6-13t-5-13q-15-21-55-61t-53-39q-7 0-14 5l-77 60q-25-13-51-21-9-76-16-104-4-16-20-16h-124q-8 0-14 5t-6 12l-16 103q-27 9-50 21l-79-60q-6-5-14-5-8 0-14 6-70 64-92 94-4 5-4 13 0 6 5 12 8 12 28 37t30 40q-15 28-23 55l-102 15q-7 1-11 7t-5 13v124q0 7 5 13t10 7l104 16q8 25 22 51-23 32-60 77-6 7-6 14 0 5 5 12 15 20 55 60t53 40q7 0 15-5l77-60q24 13 50 21 9 76 17 104 3 16 20 16h124q7 0 13-5t7-12l15-103q28-9 51-20l79 59q5 5 13 5 7 0 14-5 72-67 92-95 4-5 4-12 0-7-4-13-9-12-29-37t-30-40q15-28 23-54l102-16q7-1 12-7t4-13z" horiz-adv-x="857.1" />

<glyph glyph-name="display-general" unicode="&#xe80c;" d="M571 350q0 59-41 101t-101 42-101-42-42-101 42-101 101-42 101 42 41 101z m286 61v-124q0-7-4-13t-11-7l-104-16q-10-30-21-51 19-27 59-77 6-6 6-13t-5-13q-15-21-55-61t-53-39q-7 0-14 5l-77 60q-25-13-51-21-9-76-16-104-4-16-20-16h-124q-8 0-14 5t-6 12l-16 103q-27 9-50 21l-79-60q-6-5-14-5-8 0-14 6-70 64-92 94-4 5-4 13 0 6 5 12 8 12 28 37t30 40q-15 28-23 55l-102 15q-7 1-11 7t-5 13v124q0 7 5 13t10 7l104 16q8 25 22 51-23 32-60 77-6 7-6 14 0 5 5 12 15 20 55 60t53 40q7 0 15-5l77-60q24 13 50 21 9 76 17 104 3 16 20 16h124q7 0 13-5t7-12l15-103q28-9 51-20l79 59q5 5 13 5 7 0 14-5 72-67 92-95 4-5 4-12 0-7-4-13-9-12-29-37t-30-40q15-28 23-54l102-16q7-1 12-7t4-13z" horiz-adv-x="857.1" />

<glyph glyph-name="admin-notification" unicode="&#xe80d;" d="M1059 399c-1 0-1-1-2-1-22-4-37-23-37-45v-281c0-17-14-31-31-31h-827c-17 0-31 14-31 31v492l371-263c22-15 47-23 74-23 26 0 51 8 73 23l161 114c22 16 26 47 9 68-1 0-1 1-1 1-16 19-44 24-64 9l-161-114c-5-3-11-5-17-5-7 0-13 2-18 5l-360 255h524c23 0 43 17 46 39 0 1 1 2 1 3 5 28-17 54-46 54h-561c-69 0-126-57-126-127v-531c0-70 57-127 126-127h827c70 0 126 57 126 127v281c0 30-27 52-56 46v0z m-53 424c-104 0-188-85-188-189 0-104 84-189 188-189 104 0 189 85 189 189 0 104-85 189-189 189z m0-283c-52 0-94 42-94 94 0 52 42 94 94 94 52 0 95-42 95-94 0-52-43-94-95-94z" horiz-adv-x="1231" />

<glyph glyph-name="approval-notification" unicode="&#xe80e;" d="M813 291c-5 2-10 3-16 3-15 0-28-8-34-22l-48-100-13 17c-7 9-18 15-30 15-12 0-17-3-23-8-17-13-20-37-7-54l52-65c7-10 18-15 29-15 2 0 3 0 5 0 13 2 24 10 30 22l73 156c9 19 1 42-18 51v0z m92 58c-7 7-15 14-23 20v294c0 55-45 100-101 100h-656c-55 0-100-45-100-100v-422c0-56 45-101 100-101h371c8-50 32-96 68-132 46-46 106-71 170-71 65 0 125 25 171 71 45 45 70 106 70 170 0 64-25 125-70 171v0z m-152 338l-286-202c-4-3-9-5-14-5-5 0-10 2-14 5l-286 202h600z m-189-338c-36-37-60-83-68-133h-371c-14 0-25 11-25 25v391l295-209c17-12 37-19 58-19 21 0 41 7 58 19l295 209v-224c-23 8-47 11-72 11-64 0-125-25-170-70z m170-336c-91 0-165 74-165 165 0 91 74 165 165 165 92 0 166-74 166-165 0-91-74-165-166-165z" horiz-adv-x="1000" />

<glyph glyph-name="pagination" unicode="&#xe811;" d="M956 581h-906c-31 0-50 25-50 50 0 25 19 44 50 50h900c31 0 50-18 50-50 0-31-19-50-44-50z m-668-231c0-76-62-137-138-137-76 0-137 61-137 137 0 76 61 138 137 138 76 0 138-62 138-138z m250-106c58 0 106 47 106 106 0 59-48 106-106 106-59 0-107-47-107-106 0-59 48-106 107-106z m343 0c59 0 107 47 107 106 0 59-48 106-107 106-58 0-106-47-106-106 0-59 48-106 106-106z m69-125h-900c-31 0-50-19-50-50 0-25 19-50 50-50h906c25 0 50 19 50 50-6 31-25 50-56 50z" horiz-adv-x="1000" />

<glyph glyph-name="space_between" unicode="&#xe813;" d="M65 850h-55c-5 0-10-4-10-10v-980c0-6 5-10 10-10h55c6 0 10 4 10 10v980c0 6-4 10-10 10z m215-250h-185c-11 0-20-9-20-20v-460c0-11 9-20 20-20h185c11 0 20 9 20 20v460c0 11-9 20-20 20z m625 0h-185c-11 0-20-9-20-20v-460c0-11 9-20 20-20h185c11 0 20 9 20 20v460c0 11-9 20-20 20z m85 250h-55c-5 0-10-4-10-10v-980c0-6 5-10 10-10h55c6 0 10 4 10 10v980c0 6-4 10-10 10z" horiz-adv-x="1000" />

<glyph glyph-name="left-open-2" unicode="&#xe814;" d="M654 682l-297-296 297-297q10-10 10-25t-10-25l-93-93q-11-10-25-10t-25 10l-414 415q-11 10-11 25t11 25l414 414q10 11 25 11t25-11l93-93q10-10 10-25t-10-25z" horiz-adv-x="714.3" />

<glyph glyph-name="form-editor" unicode="&#xe815;" d="M763 494l31 31 31 31c6 7 6 13 6 19v138c0 75-62 137-137 137h-556c-75 0-138-62-138-137v-732c0-69 63-131 138-131h568c75 0 138 62 138 137v132c0 12-13 12-19 6l-75-69c-6-6-6-12-6-18v-57c0-25-19-44-44-44h-562c-25 0-44 19-44 44v732c0 25 19 43 44 43h568c25 0 44-18 44-43 0 0 0-163 0-213v0c-6-6 6-12 13-6l0 0z m-150 94l-382 0c-25-7-50 12-50 37 0 25 19 50 44 50l381 0c25 0 44-19 50-44 7-25-18-43-43-43z m0-188l-382 0c-25-6-50 13-50 38 0 25 19 50 44 50l381 0c25 0 44-19 50-44 7-25-18-44-43-44z m-44-119l-63-62c-6-6-12-6-18-6h-263c-25 0-50 18-50 50 0 25 19 50 50 50h338c12-13 18-25 6-32z m-188-256l-156 0c-25 0-44 19-50 44 0 25 19 50 44 50l156 0c25 0 44-19 50-44 6-31-12-50-44-50z m457 419c0 0-7 6-13 6-6 0-6 0-12-6l-288-288c0 0-6-6-6-6l-19-112c0-7 0-13 6-13 7-6 7-6 13-6l106 25c6 0 6 0 13 6l287 288c0 0 6 6 6 12 0 6 0 6-6 13l-87 81z m156-13l-88 88c0 0-6 6-12 6s-6 0-13-6l-31-44c0 0-6-6-6-12s0-7 6-13l88-81c0 0 6-6 12-6 6 0 6 0 13 6l37 37c0 7 0 7 0 13s0 6-6 12l0 0z" horiz-adv-x="1000" />

<glyph glyph-name="right-open-3" unicode="&#xe816;" d="M31 684q30 31 74 31t74-31l335-334-335-334q-31-31-74-31t-74 31-31 74 31 74l188 186-188 186q-31 32-31 74t31 74z" horiz-adv-x="514" />

<glyph glyph-name="arrow-triangle-right" unicode="&#xe817;" d="M109 709l415-342-415-342v684z m-41 120c-9 0-19-8-19-20v-884c0-12 10-24 19-24 3 0 6 0 10 4l533 442c13 8 13 28 0 40l-533 438c-4 4-7 4-10 4z" horiz-adv-x="643" />

<glyph glyph-name="left" unicode="&#xe818;" d="M0 353l390 391q19 18 44 18 25 0 43-18t18-44-18-43l-243-243h642q25 0 43-18t18-43-18-43-43-18h-642l243-243q18-18 18-44t-18-43-43-18-44 18z" horiz-adv-x="938" />

<glyph glyph-name="space_around" unicode="&#xe819;" d="M65 850h-55c-5 0-10-4-10-10v-980c0-6 5-10 10-10h55c6 0 10 4 10 10v980c0 6-4 10-10 10z m275-250h-185c-11 0-20-9-20-20v-460c0-11 9-20 20-20h185c11 0 20 9 20 20v460c0 11-9 20-20 20z m505 0h-185c-11 0-20-9-20-20v-460c0-11 9-20 20-20h185c11 0 20 9 20 20v460c0 11-9 20-20 20z m145 250h-55c-5 0-10-4-10-10v-980c0-6 5-10 10-10h55c6 0 10 4 10 10v980c0 6-4 10-10 10z" horiz-adv-x="1000" />

<glyph glyph-name="demo_link" unicode="&#xe81a;" d="M953 413a47 47 0 0 0-32 13l-102 101c-8 9-23 9-31 0l-280-279a79 79 0 0 0-110 0c-31 30-31 80 0 110l279 279c9 9 9 23 0 32l-101 101c-8 10-14 21-13 34 0 26 22 46 47 46h328c34 0 62-28 62-62v-329c0-25-21-46-47-46z m-828 156v-563c0-17 14-31 31-31h563c17 0 31 14 31 31v291c0 20 24 29 37 16l73-73a50 50 0 0 0 15-36v-229a125 125 0 0 0-125-125h-625a125 125 0 0 0-125 125v625a125 125 0 0 0 125 125h229c14 0 26-5 36-15l73-73c14-13 4-37-16-37h-291c-17 0-31-14-31-31z" horiz-adv-x="1000" />

<glyph glyph-name="left-open-4" unicode="&#xe820;" d="M481 684q32-31 32-74t-32-74l-186-186 186-186q32-31 32-74t-32-74-73-31-74 31l-334 334 334 334q30 31 74 31t73-31z" horiz-adv-x="513" />

<glyph glyph-name="left-open-outline" unicode="&#xe821;" d="M638 91q0-64-47-111t-110-46q-65 0-110 45l-371 372 371 371q44 44 111 44t111-44q45-45 45-111 0-65-45-110l-150-150 150-150q45-45 45-110z m-490 260l297-298q15-15 37-15t37 15 15 38q0 21-15 36l-224 224 224 223q15 15 15 37 0 22-15 37t-37 15-37-15z" horiz-adv-x="638" />

<glyph glyph-name="left-open-big" unicode="&#xe822;" d="M452-20q26-26 0-48-26-26-48 0l-392 394q-24 24 0 50l392 394q22 26 48 0 26-22 0-48l-358-372z" horiz-adv-x="465" />

<glyph glyph-name="notification-messages" unicode="&#xe824;" d="M350-113c-6 0-19 0-25 7-12 6-25 25-25 43v126h-169c-68 0-131 56-131 131v487c0 75 56 132 131 132h744c69 0 131-57 131-132v-487c0-69-56-131-131-131h-219l-281-169c-6 0-19-7-25-7z m-219 832c-18 0-37-19-37-38v-487c0-19 19-38 37-38h225c25 0 50-18 50-50v-87l219 125c6 6 13 6 25 6h231c19 0 38 19 38 38v493c0 19-19 38-38 38h-750z m150-356c42 0 75 33 75 75 0 41-33 75-75 75-41 0-75-34-75-75 0-42 34-75 75-75z m219 0c41 0 75 33 75 75 0 41-34 75-75 75-41 0-75-34-75-75 0-42 34-75 75-75z m294 75c0-42-34-75-75-75-42 0-75 33-75 75 0 41 33 75 75 75 41 0 75-34 75-75z" horiz-adv-x="1000" />

<glyph glyph-name="reviewer-image" unicode="&#xe825;" d="M500 850c-275 0-500-225-500-500 0-275 225-500 500-500 275 0 500 225 500 500 0 275-225 500-500 500z m0-94c225 0 406-181 406-406 0-75-25-150-62-212-25 75-81 131-156 162l-19 6-19-12c-94-56-206-56-294 0l-25 12-18-6c-75-25-132-87-157-162-37 62-62 131-62 212 0 225 181 406 406 406z m-262-712v19c0 62 37 118 87 143 113-56 244-56 350 0 56-25 88-81 88-143v-19c-69-63-163-100-263-100-100 0-194 37-262 100z m262 275c100 0 181 81 181 181 0 100-81 175-181 175-100 0-181-75-181-175 0-100 81-181 181-181z m0 269c50 0 88-38 88-88 0-50-38-87-88-87-50 0-87 37-87 87 0 50 37 88 87 88z" horiz-adv-x="1000" />

<glyph glyph-name="basic-preferences" unicode="&#xe826;" d="M721 46c-27-16-57-27-89-36l-15-89c-2-16-17-28-34-28h-89c-17 0-31 12-34 28l-15 89c-33 9-65 22-94 39l-74-53c-14-9-32-8-44 4l-63 63c-12 12-13 30-3 44l52 73c-18 29-32 61-41 96l-90 15c-16 3-28 17-28 34v89c0 17 12 31 28 34l89 15c8 34 21 67 39 97l-53 74c-10 13-8 32 4 44l62 63c12 11 31 13 44 3l73-53c29 18 62 32 96 41l15 90c3 16 18 28 34 28h90c17 0 31-12 34-28l14-89c36-8 69-22 99-40l74 52c14 10 32 8 44-3l63-63c12-12 13-30 3-44l-52-74c18-30 31-62 40-96l89-15c16-3 28-17 29-33v-90c0-17-12-31-29-34l-89-14c-8-31-19-60-34-87l-97 89c11 28 17 59 17 90 0 137-111 248-247 248-137 0-247-111-247-248 0-136 110-247 247-247 32 0 62 6 90 17l92-95z m-33 254c-25 27-31 37-25 68 8 33 8 75-33 111-7 6-22 15-22 17-65 38-133 3-133 3l-5-8c0 0 59-39 66-43 8-5 34-34 3-79-29-45-62-31-72-23-7 4-66 42-66 42l-5-9c0 0-4-79 61-121 30-20 63-20 86-11 23 7 40-1 69-29l332-340c26-28 68-28 95-1 27 27 28 69 2 96l-353 327z m328-400c-13-15-36-13-50 1-13 13-13 36 0 49 14 14 37 14 50 0 14-13 14-37 0-50z" horiz-adv-x="1063" />

<glyph glyph-name="testimonial-quote" unicode="&#xe82f;" d="M517 130c0 58-16 107-48 148-49 61-143 69-198 57-22 128 87 292 228 363l-108 152c-214-101-423-335-387-629 23-186 130-308 282-308 67 0 122 19 165 58 44 40 66 92 66 159v0z m628 0c0 58-16 107-48 148-48 61-142 69-197 57-23 128 87 292 228 363l-109 152c-213-101-422-335-386-629 22-186 130-308 282-308 66 0 122 19 165 58 44 40 65 92 65 159v0z" horiz-adv-x="1200" />

<glyph glyph-name="social" unicode="&#xe839;" d="M800 294c-19 0-31 0-50-6l-106 181c37 37 56 87 56 144 0 112-87 200-200 200s-200-94-200-207c0-56 19-106 56-143l-106-175c-12 6-31 6-50 6-112 0-200-88-200-200s88-200 200-200c94 0 169 62 194 150h206c25-88 106-150 194-150 112 0 200 93 200 200 6 112-81 200-194 200z m0-300a99 99 0 0 0-100 100c0 50 44 94 100 94 25 0 50-13 69-25 19-19 25-44 25-69 0-56-44-100-94-100z m-394 612c0 57 44 100 94 100s94-43 94-100a92 92 0 0 0-94-93 96 96 0 0 0-94 93z m44-193c13 0 31-7 50-7s38 0 50 7l106-182c-25-25-43-56-50-87h-212c-6 31-25 62-50 87l106 182z m-344-319a96 96 0 0 0 94 94 96 96 0 0 0 94-94c0-56-44-100-94-100s-94 44-94 100z" horiz-adv-x="1000" />

<glyph glyph-name="testimonial-content" unicode="&#xe83a;" d="M863 850h-725a139 139 0 0 1-138-137v-538a139 139 0 0 1 138-137h262l313-182c12-6 25-12 37-12s25 6 38 12c25 13 37 38 37 69v113h38a139 139 0 0 1 137 137v538a139 139 0 0 1-137 137z m43-675a43 43 0 0 0-43-44h-63a69 69 0 0 1-69-68v-107l-293 169c-13 6-25 6-38 6h-262a43 43 0 0 0-44 44v538a43 43 0 0 0 44 43h725a43 43 0 0 0 43-43v-538z m-156 444h-500a59 59 0 0 1-62-63 59 59 0 0 1 62-62h500a59 59 0 0 1 63 62c0 32-25 63-63 63z m0-219h-500a59 59 0 0 1-62-62 59 59 0 0 1 62-63h500a59 59 0 0 1 63 63c0 31-25 62-63 62z" horiz-adv-x="1000" />

<glyph glyph-name="space_evenly" unicode="&#xe83c;" d="M65 850h-55c-5 0-10-4-10-10v-980c0-6 5-10 10-10h55c6 0 10 4 10 10v980c0 6-4 10-10 10z m345-250h-185c-11 0-20-9-20-20v-460c0-11 9-20 20-20h185c11 0 20 9 20 20v460c0 11-9 20-20 20z m365 0h-185c-11 0-20-9-20-20v-460c0-11 9-20 20-20h185c11 0 20 9 20 20v460c0 11-9 20-20 20z m215 250h-55c-5 0-10-4-10-10v-980c0-6 5-10 10-10h55c6 0 10 4 10 10v980c0 6-4 10-10 10z" horiz-adv-x="1000" />

<glyph glyph-name="theme-styles" unicode="&#xe83e;" d="M700 719v-113h-487c-38 7-75-31-75-68v-363h-107c-18 0-31 13-31 31v513c0 19 13 31 31 31h638c19 0 31-12 31-31z m225-525v-213c0-19-12-31-31-31h-638c-18 0-31 12-31 31v513c0 19 13 31 31 31h638c12 0 19-6 25-12-25-7-50-13-69-32l-212-200c-13-12-32-18-50-31-25-19-38-37-44-50 0-6-6-6-6-6 0 0-7-6-25-13l-88-25 31-81c25-75 107-106 182-106h6c62 0 144 25 181 100 6 12 13 25 13 37l87 88z m75 194c0-19-6-32-19-44l-168-181c-7 12-7 25-13 37-19 31-50 50-81 56l181 175c13 13 25 19 44 19 19 0 31-6 44-19 6-12 12-25 12-43z m-362-363c-44 0-107 25-119 69l-6 19 18 6c19 6 44 12 57 31 0 6 6 13 6 13 6 12 19 25 31 37 19 13 38 19 63 19h6c31 0 56-19 69-44 18-25 18-62 6-87-25-44-81-63-131-63z" horiz-adv-x="1000" />

<glyph glyph-name="reviewer-info" unicode="&#xe83f;" d="M525 250c-19 0-37-19-37-37 0-19 18-38 37-38 19 0 38 19 38 38 0 18-19 37-38 37z m19-231c-6 0-6 0-6 0-7 0-13 0-13 0v6c0 0 0 6 0 13v12l13 44c0 6 0 6 0 12 0 7 0 7 0 13 0 12-7 19-13 25-6 12-19 19-31 19-6 0-19 0-25-7-6 0-19-6-25-12l-6-13 6-6h6 6c7 0 13 0 13 0v-6c0 0 0-6 0-13 0 0 0-6 0-12l-13-44c0-6 0-12 0-12 0-7 0-7 0-13 0-12 7-19 13-25 6-6 19-13 31-13 6 0 13 0 25 7l25 12 6 13-6 6-6-6z m206 650h-500c-19 0-37-19-37-38 0-18 18-37 37-37h500c19 0 38 19 38 37 0 19-19 38-38 38z m-94-144h-312c-19 0-38-19-38-37 0-19 19-38 38-38h312c19 0 38 19 38 38 0 18-19 37-38 37z m207 325h-725c-75 0-138-62-138-137v-507c0-75 63-137 138-137h100c25-125 131-219 262-219 131 0 238 94 263 219h100c75 0 137 62 137 137v507c0 75-62 137-137 137z m-363-906c-94 0-175 75-175 175 0 100 81 169 175 169 94 0 175-75 175-175 0-100-81-169-175-169z m406 262c0-25-18-43-43-43h-100c-25 125-132 218-263 218-131 0-237-93-262-218h-100c-25 0-44 18-44 43v507c0 25 19 43 44 43h725c25 0 43-18 43-43v-507z" horiz-adv-x="1000" />

<glyph glyph-name="video-testimonial" unicode="&#xe840;" d="M644 306l-213-143c-31-25-75 0-75 37v294c0 37 44 62 75 37l213-143c31-19 31-57 0-82z m219-406h-725c-75 0-138 62-138 138v631c0 75 63 137 138 137h731c75 0 137-62 137-137v-638c-6-75-68-131-143-131z m-725 813c-25 0-44-19-44-44v-638c0-25 19-44 44-44h731c25 0 44 19 44 44v638c0 25-19 44-44 44h-731z" horiz-adv-x="1000" />

<glyph glyph-name="rt" unicode="&#xe842;" d="M1172 850h-491c-32 0-56-27-56-56v-252c0-32 27-57 56-57h43v-99c0-8 5-13 11-16 2 0 5-3 8-3 5 0 8 3 10 6l132 112h287c32 0 56 27 56 57v252c0 29-27 56-56 56z m-352-174l-26-27 5-35c0-3 0-5-3-8 0 0-2 0-5 0h-3l-32 16-29-13c-3 0-6 0-8 0-3 2-3 5-3 8l5 35-27 26c-2 3-2 6-2 9 2 0 5 2 8 2l37 6 16 32c0 2 3 2 6 2s5-2 5-2l16-32 38-6c2 0 5-2 5-5 0-3 0-6-3-8z m167 0l-27-27 5-35c0-3 0-5-2-8 0 0-3 0-6 0h-3l-32 16-29-13c-3 0-6 0-8 0-3 2-3 5-3 8l5 35-26 26c-3 3-3 6-3 9s3 5 5 5l38 5 16 32c0 3 3 3 5 3 3 0 6-3 6-3l16-32 40-8c3 0 5-2 5-5 0-3 0-6-2-8z m166 0l-27-27 5-35c0-3 0-5-2-8 0 0-3 0-6 0h-2l-32 16-30-13c-3 0-5 0-8 0-3 2-3 5-3 8l6 35-27 26c-3 3-3 6-3 9 0 2 3 5 6 5l37 5 16 32c0 3 3 3 6 3s5-3 5-3l16-32 40-8c3 0 6-2 6-5 0-3 0-6-3-8z m-762 0c-120 0-187-62-185-183 3-163 73-262 185-262 0 0 185-8 185 262 0 121-61 183-185 183z m328-569l-185 73-43 37c-11 11-30 8-41-2l-59-59-61 59c-11 10-27 10-40 2l-41-37-185-75c-59-24-59-236-64-255h786c-6 21-6 233-67 257z" horiz-adv-x="1228" />

<glyph glyph-name="api-sett" unicode="&#xe884;" d="M420-133c-21 0-39 18-39 39v115c-16 5-33 12-49 21l-81-81c-8-8-18-12-28-12-10 0-20 4-27 12l-97 96c-15 15-15 40 0 55 0 0 81 81 81 81-8 16-15 33-21 50h-114c-22 0-39 17-39 39v136c0 22 17 39 39 39h114c6 17 13 34 21 50l-81 81c-15 15-15 40 0 55l97 97c7 7 17 11 27 11 10 0 20-4 28-11 0 0 80-81 81-81 16 8 33 15 49 20v115c0 21 18 39 39 39h148c22 0 39-18 39-39v-176h-77v137h-71v-105c0-19-12-34-30-38-29-7-57-19-83-35-6-4-14-6-21-6-10 0-20 4-27 11l-75 75-41-42 74-74c13-13 15-33 6-48-17-26-28-54-35-84-4-17-20-30-38-30h-105v-59h105c19 0 34-12 38-30 7-29 19-57 35-83 10-16 7-35-6-48l-74-75 41-41 75 74c7 7 17 11 27 11 11 0 15-2 21-6 26-16 54-27 83-34 18-4 31-20 31-38v-106h70v198c-10-2-20-2-30-2-115 0-209 94-209 209 0 116 94 210 209 210 116 0 39-17 39-39v-109c9-5 17-13 23-22h116v302c0 22 17 39 39 39h143c13 21 36 35 61 35 41 0 73-33 73-74 0-40-32-73-73-73-40 0-48 13-61 35h-104v-264h104c13 21 36 34 61 34 41 0 73-33 73-73 0-40-32-73-73-73-40 0-48 13-61 34h-104v-263h104c13 21 36 34 61 34 41 0 73-33 73-73 0-40-32-73-73-73-40 0-48 13-61 34h-143c-22 0-39 17-39 39v303h-116c-13-22-37-35-62-35-40 0-73 33-73 73 0 41 13 49 34 62v64c-55-17-92-68-92-126 0-58 59-132 131-132 73 0 36 4 53 11 5 2 10 4 16 4 5 0 15-2 21-7 11-7 18-19 18-32v-288c0-21-18-38-39-38h-148l-1-1z" horiz-adv-x="1000" />

<glyph glyph-name="code" unicode="&#xe885;" d="M293-142c-157 0-285 128-285 285v414c0 157 128 285 285 285h414c157 0 285-128 285-285v-414c0-157-128-285-285-285h-414z m0 902c-112 0-203-91-203-203v-414c0-112 91-203 203-203h414c112 0 203 91 203 203v414c0 112-91 203-203 203h-414z m104-600c-9 0-18 4-24 11l-155 154c-7 7-11 16-11 25 0 9 4 18 11 25l155 155c6 6 15 10 24 10 10 0 18-4 25-10 7-7 10-16 10-25 0-10-3-18-10-25l-130-130 130-130c7-6 10-15 10-25 0-9-3-18-10-24-7-7-15-11-25-11z m206 0c-10 0-18 4-25 11-7 6-10 15-10 24 0 10 3 19 10 25l130 130-130 130c-7 7-10 15-10 25 0 9 3 18 10 25 7 6 15 10 25 10 9 0 18-4 25-10l154-155c7-7 11-16 11-25 0-9-4-18-11-25l-154-154c-7-7-16-11-25-11z" horiz-adv-x="1000" />

<glyph glyph-name="advanced" unicode="&#xe886;" d="M842-144c-41 0-79 16-108 44l-203 203c-17 18-31 41-38 66l-72-72c10-66-12-132-59-179-39-40-92-61-147-61-32 0-62 6-90 20-12 5-20 16-22 28-2 13 2 26 11 35l62 62v25h-25l-62-62c-8-8-17-12-28-12-15 0-29 9-35 22-38 80-22 176 41 238 39 39 93 61 148 61 55 0 21-1 31-2l94 95-139 139-9-8c-7-8-17-12-27-12-11 0-27 7-34 19l-119 200c-10 16-7 35 5 48l81 80c7 7 17 11 27 11 10 0 14-2 20-5l200-120c11-7 18-17 19-29 1-12-3-24-11-32l-9-9 140-140 95 95c-10 66 11 132 58 179 40 40 92 61 148 61 56 0 62-7 90-20 11-6 20-16 22-29 2-12-2-25-11-34l-62-62v-25h25l62 62c7 8 17 12 28 12 15 0 28-9 35-23 38-79 21-175-41-237-39-39-93-61-148-61-55 0-21 0-31 2l-72-72c24-7 47-20 65-38l203-203c60-60 60-156 0-216-28-28-67-44-107-44h-1z m-254 406c-26-26-34-71-1-104l203-203c14-14 32-21 52-21 20 0 39 7 53 21 29 29 29 76 0 105l-203 203c-14 14-33 22-51 22-19 0-37-8-53-23h0z m-373-158c21 0 39-17 39-39v-80c0-10-5-20-12-27l-23-23c33 1 65 14 88 38 33 33 46 81 34 126-3 14 0 28 10 38l362 362c8 7 18 11 28 11 10 0 7 0 10-1 11-3 22-5 34-5 34 0 68 14 92 39 24 23 37 55 39 88l-24-23c-7-8-17-12-27-12h-80c-22 0-39 18-39 39v80c0 11 4 20 11 28l24 23c-34-1-65-15-89-38-33-33-46-82-34-127 4-13 0-28-10-37-12-13-356-356-362-362-7-8-17-12-27-12-11 0-7 1-10 2-11 3-23 4-34 4-35 0-69-14-93-38-23-23-37-55-38-88l23 23c8 7 17 11 28 11h80z m181 318l33 32-140 140-33-33 140-139z m-223 166l89 89-131 79-37-37 79-131z" horiz-adv-x="1000" />

<glyph glyph-name="key-01" unicode="&#xe887;" d="M992 534c-8 78-44 152-100 208-56 56-130 92-208 100-13 1-25 2-37 2-67 0-132-19-188-55-67-43-117-108-142-183-24-72-24-150 1-221l-295-294c-11-11-17-26-17-41v-143c0-14 5-26 15-36 10-10 22-15 36-15h143c15 0 29 6 40 16l36 36c12 11 18 27 18 43v47h39c18 0 36 8 49 21 13 13 20 30 20 48v39h47c17 0 32 7 44 18l42 43c36-12 74-18 112-18 38 0 74 6 109 17 75 25 140 76 183 142 43 67 62 147 53 225v1z m-120-189c-35-52-88-90-148-108-25-8-51-12-77-12-27 0-72 8-106 22-4 2-9 3-14 3-5 0-5-1-8-1-7-2-14-5-19-10l-56-56h-70c-13 0-24-5-33-14-9-9-14-21-14-33v-60h-61c-12 0-24-5-33-14-9-9-14-21-14-33v-70l-26-27h-111v111l307 307c5 5 9 12 10 20 2 7 1 15-2 22-24 57-28 122-10 183 18 60 57 112 109 147 45 31 97 47 151 47 55 0 18-1 26-2 63-6 122-33 166-77l0-1c45-44 72-103 78-165 6-63-10-126-44-178l-1-1z m-73 303c-23 23-53 36-86 36-32 0-62-13-85-36-23-22-35-53-35-85 0-32 12-63 35-85 23-23 53-36 85-36 33 0 63 13 86 36 23 23 35 53 35 85 0 32-12 63-35 85z m-54-117c-9-9-20-14-32-14-12 0-23 5-32 14-8 8-13 19-13 31 0 12 5 24 13 32 9 9 20 13 32 13h3c11 0 21-5 29-13 9-8 13-19 13-31 0-13-5-24-13-32l0 0z" horiz-adv-x="1000" />

<glyph glyph-name="shuttle_2285485-1" unicode="&#xe8bd;" d="M1030 775c-2 40-34 72-73 74-81 4-237 0-387-78-77-39-158-106-222-184-1 0-2-1-3-2l-146-12c-24-2-46-14-59-34l-100-151c-10-16-12-35-4-52 7-16 23-28 41-31l123-19c0-2-1-5-1-7-4-25 4-50 22-68l171-172c15-14 35-23 55-23 5 0 9 1 13 2 2 0 5 0 7 1l19-124c3-18 15-33 32-40 7-4 14-5 21-5 11 0 21 3 30 9l151 100c20 13 33 35 35 59l11 146c1 1 2 2 3 3 77 64 144 145 184 221 77 150 81 307 77 387z m-342-767l-145-96-19 120c61 18 122 47 179 86l-7-96c0-6-3-11-8-14z m-254 73l-172 172c-4 4-6 10-5 16 5 31 13 60 22 87l258-258c-33-12-62-19-87-23-6-1-12 1-16 6z m-230 434l95 7c-39-57-67-118-85-179l-121 19 96 144c3 5 9 8 15 9z m527-303c-47-40-93-68-135-89l-292 291c27 56 60 102 89 136 60 72 134 133 204 169 137 72 282 75 356 71 10 0 18-8 19-18 4-74 0-219-71-357-36-69-98-144-170-203z m-15 177c38 0 75 14 104 42 28 28 43 65 43 104 0 39-15 76-43 104-57 57-150 57-207 0-28-28-43-65-43-104 0-39 15-76 43-104 28-28 66-42 103-42z m-62 208c17 17 40 26 62 26 23 0 45-9 62-26 17-16 26-38 26-62 0-23-9-46-26-62-34-34-90-34-124 0-16 16-26 39-26 62 0 24 10 46 26 62z m-593-571c8 0 15 3 21 9l96 95c11 12 11 30 0 42-12 11-30 11-42 0l-96-96c-11-11-11-30 0-41 6-6 14-9 21-9z m204 58c-11 11-30 11-41 0l-184-184c-12-11-12-30 0-41 6-6 13-9 21-9 7 0 15 3 20 9l184 184c12 11 12 30 0 41z m46-88l-95-95c-12-12-12-30 0-42 6-6 13-8 20-8 8 0 15 2 21 8l96 96c11 11 11 30 0 41-12 12-30 12-42 0z" horiz-adv-x="1063" />

<glyph glyph-name="check-icon" unicode="&#xe8be;" d="M493-97c-12-12-27-18-43-18-17 0-32 6-44 18l-346 346c-36 36-36 94 0 130l44 43c36 36 94 36 130 0l216-216 583 584c36 36 94 36 130 0l43-44c36-35 36-94 0-129l-713-714z" horiz-adv-x="1267" />

<glyph glyph-name="right-open" unicode="&#xf006;" d="M0 0q0 25 18 43l305 304-305 304q-18 18-18 44t18 43 44 18 43-18l390-391-390-391q-19-18-43-18t-44 18q-18 18-18 44z" horiz-adv-x="495.1" />

<glyph glyph-name="left-open" unicode="&#xf007;" d="M0 353l391 391q18 18 43 18 24 0 43-18 18-18 18-44t-18-43l-304-304 304-305q18-17 18-43t-18-43q-18-18-43-18t-43 18z" horiz-adv-x="495.1" />

<glyph glyph-name="angle-left" unicode="&#xf104;" d="M350 546q0-7-6-12l-219-220 219-219q6-6 6-13t-6-13l-28-28q-5-5-12-5t-13 5l-260 261q-6 5-6 12t6 13l260 260q5 6 13 6t12-6l28-28q6-5 6-13z" horiz-adv-x="357.1" />

<glyph glyph-name="angle-right" unicode="&#xf105;" d="M332 314q0-7-5-12l-261-261q-5-5-12-5t-13 5l-28 28q-6 6-6 13t6 13l219 219-219 220q-6 5-6 12t6 13l28 28q5 6 13 6t12-6l261-260q5-5 5-13z" horiz-adv-x="357.1" />
</font>
</defs>
</svg>
